他们已不再变老 – They Shall Not Grow Old (2018) – 1080P高清电影下载

他们已不再变老 - They Shall Not Grow Old (2018) - 1080P高清电影下载
 导演: 彼得·杰克逊
 类型: 纪录片 / 历史 / 战争
 官方网站: www.theyshallnotgrowold.film
 制片国家/地区: 英国 / 新西兰
 语言: 英语
 上映日期: 2019-11-11(中国大陆) / 2018-10-16(伦敦电影节) / 2018-11-09(英国)
 片长: 99分钟
 又名: 他们不再老去(台) / 不老的战迹(港) / 他们不会变老 
 IMDb链接: tt7905466 

《他们已不再变老》是由华纳兄弟影业出品,奥斯卡金像奖获奖导演彼得·杰克逊(《指环王》三部曲,《霍比特人》三部曲)执导的战争纪录片。电影聚焦于1914年—1918年一战士兵的日常生活。片中大部分史料均为首次公开,制作团队应用最顶尖修复、上色及3D 技术,将百年前影像进行全彩修复并重新加入声效,以英国老兵口述史为旁白还原一战士兵遭遇和感受,为观众呈现身临其境、极度真实的沉浸式战争体验。影片将于2019年11月11日(一战结束一百零一周年纪念日)全国艺联专线上映。

Through ground breaking computer restoration technology, filmmaker Peter Jackson’s team creates a moving real-to-life depiction of the WWI, as never seen before in restored, vivid colorizing & retiming of the film frames, in order to honor those who fought and more accurately depict this historical moment in world history. 

资源/种子1详情

They Shall Not Grow Old (2018) [BluRay] [1080p] English

They Shall Not Grow Old (2018) [BluRay] [1080p] English
 
https://extraimage.co/image/LTRRP 
https://extraimage.co/image/LTSYW 
https://extraimage.co/image/LToQS

资源/种子2详情

They Shall Not Grow Old (2018) [WEBRip] [1080p] English

They Shall Not Grow Old (2018) [WEBRip] [1080p] English

https://extraimage.co/image/LVOCl 
https://extraimage.co/image/LVAP1 
https://extraimage.co/image/LVM98

资源/种子3详情

They.Shall.Not.Grow.Old.2018.LiMiTED.1080p.BluRay.x264

[Video Bitrate]:.............: 11.0mb/s
[Duration]:.............: 1 h 39 min
[Video Codec]:.............: AVC
[Resolution]:.............: 1920x1040 px
[Aspect Ratio]:.............: 1.85:1
[Audio Codec]:.............: DTS
[Audio Bitrate]:.............: 1509kb/s
[Audio Channels]:.............: 5.1ch
[Audio Language]:.............: English
截屏:
https://extraimage.net/image/cRXL
https://extraimage.net/image/cRXQ
https://extraimage.net/image/cRXR
https://extraimage.net/image/cRXm
https://extraimage.net/image/cRXb

资源/种子4详情

They.Shall.Not.Grow.Old.2018.1080p.BluRay.H264.AAC

Video
ID : 1
Format : AVC
Format/Info : Advanced Video Codec
Format profile : High@L4.1
Format settings : CABAC / 4 Ref Frames
Format settings, CABAC : Yes
Format settings, ReFrames : 4 frames
Codec ID : avc1
Codec ID/Info : Advanced Video Coding
Duration : 1 h 39 min
Bit rate : 2 500 kb/s
Width : 1 920 pixels
Height : 1 040 pixels
Display aspect ratio : 1.85:1
Frame rate mode : Constant
Frame rate : 23.976 (23976/1000) FPS
Color space : YUV
Chroma subsampling : 4:2:0
Bit depth : 8 bits
Scan type : Progressive
Bits/(Pixel*Frame) : 0.052
Stream size : 1.73 GiB (92%)
Writing library : x264 core 152 r2851M ba24899
Encoded date : UTC 2018-12-16 20:20:11
Tagged date : UTC 2018-12-16 20:20:11
Codec configuration box : avcC

Audio
ID : 2
Format : AAC LC
Format/Info : Advanced Audio Codec Low Complexity
Codec ID : mp4a-40-2
Duration : 1 h 39 min
Bit rate mode : Constant
Bit rate : 224 kb/s
Channel(s) : 6 channels
Channel layout : C L R Ls Rs LFE
Sampling rate : 48.0 kHz
Frame rate : 46.875 FPS (1024 SPF)
Compression mode : Lossy
Stream size : 159 MiB (8%)
Language : English
Default : Yes
Alternate group : 1
Encoded date : UTC 2018-12-16 20:20:11
Tagged date : UTC 2018-12-16 20:20:11

资源/种子5详情

They.Shall.Not.Grow.Old.2018.1080p.BluRay.x265.HEVC.EAC3

DIRECTOR........: Peter Jackson
GENRE...........: Documentary, History, War
METASCORE.......: 92
TOMATOMETER.....: 97
IMDB RATING.....: 8.6/10  4,854 votes
IMDB LINK.......: https://www.imdb.com/title/tt7905466
RUNTIME.........: 1h 39mn
SIZE............: 3.93 GB
VIDEO CODEC.....: HEVC (Main@L4)
BITRATE.........: 5000 Kbps (2-pass)
RESOLUTION......: 1920x1080
ASPECT RATIO....: 1.85:1
FRAMERATE.......: 23.976 fps
AUDIO...........: English E-AC3 5.1 640kbps
SUBTITLES.......: ENG
CHAPTERS........: Yes
SOURCE..........: Blu-ray
ENCODED BY......: Sartre
ENCODE DATE.....: 2018-12-21

资源/种子6详情

They.Shall.Not.Grow.Old.2018.1080p.BluRay.HEVC.DTS-HD.MA.5.1-DTO

Source : FHD Bluray

Format                                   : Matroska
File size                                : 6.49 GiB
Duration                                 : 1 h 39 min
Overall bit rate mode                    : Variable
Overall bit rate                         : 9 350 kb/s

Video
Format                                   : HEVC
Format/Info                              : High Efficiency Video Coding
Format profile                           : Main 10@L4.1@High
Bit rate                                 : 7 381 kb/s
Width                                    : 1 920 pixels
Height                                   : 1 032 pixels
Bit depth                                : 10 bits
Color primaries                          : BT.709


Audio #1
Commercial name                          : DTS-HD Master Audio
Bit rate                                 : 1 929 kb/s
Channel(s)                               : 6 channels
Language                                 : English

Subs:
En
截屏:
https://extraimage.net/image/clTF 
https://extraimage.net/image/clTD 
https://extraimage.net/image/clT5 
https://extraimage.net/image/clTg 
https://extraimage.net/image/clTX 
https://extraimage.net/image/clTP 
https://extraimage.net/image/clTG 
https://extraimage.net/image/clTr

视频资源下载信息

文件类型:MP4/MKV/AVC…

下载方式:通过磁力链接或torrent种子文件下载

下载说明: magnet:?xt=urn:btih: 开头的是磁力链接,复制到迅雷等下载软件进行新建下载即可。也可以把它转换成种子文件,下边有给出可转换成种子文件的网址。

下载地址:

您暂时无权查看此隐藏内容!

抱歉,以上隐藏内容仅限VIP查看,请先
隐藏内容是下载地址,VIP免费下载资源。客服QQ:1145883698。 本站提供高质量视频资源下载,旨在免得大家花费大量时间最终下载的却垃圾资源!vip用户需要网站没有的资源,请在网站或QQ留言。本站帮大家查找资源,为大家节省时间和精力。

您可能也爱看...

发表评论

电子邮件地址不会被公开。 必填项已用*标注