黑衣人:全球追缉 – Men in Black International (2019) – 1080P高清电影下载

黑衣人:全球追缉 - Men in Black International (2019) - 1080P高清电影下载
 导演: F·加里·格雷
 编剧: 劳威尔·坎宁安 / 马特·霍洛维 / 阿特·马库姆
 主演: 克里斯·海姆斯沃斯 / 泰莎·汤普森 / 丽贝卡·弗格森 / 库梅尔·南贾尼 / 拉菲·斯波 / 更多…
 类型: 喜剧 / 动作 / 科幻
 制片国家/地区: 美国
 语言: 英语
 上映日期: 2019-06-12(中国台湾) / 2019-06-14(美国/中国大陆)
 片长: 115分钟
 又名: MIB星际战警:跨国行动(台) / 黑超特警组:反转世界(港) / 黑衣人外传 / 黑衣人4 / 黑衣人23 / 黑超特警队4 / 黑衣人:国际守护者 / Men in Black 4 / Men in Black IV / MIB 23 / MIB 4
 IMDb链接: tt2283336 

全球最具影响力的经典科幻IP《黑衣人》全面升级!科幻电影之父史蒂文·斯皮尔伯格联手《速度与激情8》导演F·加里·格雷,金牌班底鼎力巨献!英国黑衣人总部王牌探员H(锤哥)与新晋探员M(泰莎·汤普森)在阻止外星团伙入侵的过程中意外铲除了隐藏在黑衣人组织中的内奸,成功拯救世界 。 

  影片中,各种脑洞大开的外星人和颠覆想象的高科技装备轮番登场,热血沸腾惊心动魄的动作追车场面层出不穷,完美构建出全新的黑衣人宇宙观。本片将于2019年6月14日内地同步北美上映。

After an eye-opening encounter of the third kind, the secret MiB organisation’s newest recruit, Agent M, finds herself under the wing of the heroic Agent H in cosmopolitan London, when a shape-shifting duo of intergalactic assassins executes an alien aristocrat. Now, with a devastating super-weapon of mass destruction hidden somewhere on Earth, the Men in Black will leave no stone unturned to retrieve it; however, heavy clouds of mistrust and a scent of betrayal envelop the once-incorruptible agency. Is there a well-placed mole in their midst?

资源/种子1详情

Men in Black International (2019) [WEBRip] [1080p] English

FORMAT.............: MP4
CODEC..............: X264 
GENRE..............: Action / Adventure / Comedy / Sci-Fi
FILE SIZE..........: 1.9 GB
RESOLUTION.........: 1920*1024
FRAME RATE.........: 23.976 fps
AUDIO..............: AAC 2CH
LANGUAGE...........: English
RUNTIME............: 1hr 54 min

资源/种子2详情

Men in Black: International (2019) [BLURay] [1080p] English

FORMAT.............: MP4
CODEC..............: X264
GENRE..............: Action / Adventure / Comedy / Sci-Fi
FILE SIZE..........: 1.8 GB
RESOLUTION.........: 1920*944
FRAME RATE.........: 23.976 fps
AUDIO..............: AAC 2CH
LANGUAGE...........: English
RUNTIME............: 1hr 54 min

资源/种子3详情

Men.in.Black.International.2019.KOR.1080p.HDRip.H264.AAC-WHD

Video
Duration                                 : 1h 54mn
Bit rate                                 : 4 249 Kbps
Width                                    : 1 920 pixels
Height                                   : 1 080 pixels
Display aspect ratio                     : 16:9
Frame rate mode                          : Constant
Frame rate                               : 23.976 (24000/1001) fps
Color space                              : YUV
Chroma subsampling                       : 4:2:0
Bit depth                                : 8 bits

Audio
ID                                       : 2
Format                                   : AAC
Format/Info                              : Advanced Audio Codec
Format profile                           : LC
Codec ID                                 : 40
Duration                                 : 1h 54mn
Bit rate mode                            : Constant
Bit rate                                 : 192 Kbps
Channel(s)                               : 2 channels
Channel positions                        : Front: L R
Sampling rate                            : 48.0 KHz
Frame rate                               : 46.875 fps (1024 spf)
Compression mode                         : Lossy
Stream size                              : 158 MiB (4%)
Default                                  : Yes
Alternate group                          : 1

资源/种子4详情

Men.in.Black.International.2019.1080p.HDTC.x264

 MEDIAINFO
 Container = MPEG-4 (mp4)
 Duration = 01:44:34.891
 Filesize = 2 GiB
 --Video
 Codec info = AVC Baseline@L5.1 | avc1
 Resolution = 1920x1080
 Display AR = 1.778 | 16:9
 Bitrate = 3 000 kb/s
 Framerate = CFR 24.000
 Color space = YUV
 Chroma subsampling = 4:2:0
 Encoder = x264 - core 155 r2893 b00bcaf
 --Audio
 Codec info = AAC LC | 40
 Channels = 2
 Bitrate = CBR 384 kb/s
 Samplerate = 44.1 kHz
 Language = English

资源/种子5详情

Men.in.Black.International.2019.1080p.KORSUB.HDRip.x264.AAC2.0-S

Filename.......: Men.in.Black.International.2019.1080p.KORSUB.HDRip.x264.AAC2.0-STUTTERSHIT.mp4
FileSize.......: 3.88 GiB 
Duration.......: 1 h 54 min

Video 
Codec..........: AVC x264 High@L4
Resolution.....: 1920x1080
Aspect ratio...: 16:9
Bit rate.......: 4 603 kb/s
Frame rate.....: 23.976 fps

Audio 
Language.......: English  
Channels.......: 2 CH 
Format.........: AAC 
Bit rate.......: 224 kb/s 

Subtitle.......: Korean (Hardcoded)

资源/种子6详情

Men in Black International.2019.1080p.READNFO.X264.AC3

[Video Bitrate]:.............: 3536kb/s
[Duration]:.............: 1 h 54 min
[Video Codec]:.............: AVC
[Resolution]:.............: 1920x896 px
[Aspect Ratio]:.............: 2.143
[Audio Codec]:.............: AC-3
[Audio Bitrate]:.............: 384kb/s
[Audio Channels]:.............: 2.0ch
[Audio Language]:.............: English

资源/种子7详情

Men.In.Black.International.2019.Kor.1080p.HDRip.H264.AAC

General
Format                                   : Matroska
Format version                           : Version 4 / Version 2
File size                                : 3.83 GiB
Duration                                 : 1h 54mn

Video
ID                                       : 1
Format                                   : AVC
Format/Info                              : Advanced Video Codec
Format profile                           : Baseline@L4
Format settings, CABAC                   : No
Format settings, ReFrames                : 1 frame
Codec ID                                 : V_MPEG4/ISO/AVC
Duration                                 : 1h 54mn
Bit rate                                 : 4 603 Kbps
Width                                    : 1 920 pixels
Height                                   : 1 080 pixels
Display aspect ratio                     : 16:9
Frame rate mode                          : Constant

Audio
ID                                       : 2
Format                                   : AAC
Format/Info                              : Advanced Audio Codec
Format profile                           : LC
Codec ID                                 : A_AAC
Duration                                 : 1h 54mn
Bit rate                                 : 165 Kbps
Channel(s)                               : 2 channels
Channel positions                        : Front: L R
Sampling rate                            : 48.0 KHz
Frame rate                               : 46.875 fps (1024 spf)
Compression mode                         : Lossy
Delay relative to video                  : -21ms
Stream size                              : 136 MiB (3%)
Default                                  : Yes
Forced                                   : No

视频资源下载信息

文件类型:MP4/MKV/AVC…

下载方式:通过磁力链接或torrent种子文件下载

下载说明: magnet:?xt=urn:btih: 开头的是磁力链接,复制到迅雷等下载软件进行新建下载即可。也可以把它转换成种子文件,下边有给出可转换成种子文件的网址。

下载地址:

您暂时无权查看此隐藏内容!

抱歉,以上隐藏内容仅限VIP查看,请先
隐藏内容是下载地址,VIP免费下载资源。客服QQ:1145883698。 本站提供高质量视频资源下载,旨在免得大家花费大量时间最终下载的却垃圾资源!vip用户需要网站没有的资源,请在网站或QQ留言。本站帮大家查找资源,为大家节省时间和精力。

您可能也爱看...

发表评论

电子邮件地址不会被公开。 必填项已用*标注